Login
Username:
Password:
Remember Me:
[Signup]
[Recover Account]
Friends
BTScene
Friendly site

Ale Torrenty Team
Friendly site

Anime RG
Friendly site

KaranPC
Friendly site

P2PDL.com
Friendly site

Free Tutorials & Courses
Friendly site
Torrent Details For "Ride Along 2 2016 720p BluRay x264 Dual Audio [Hindi DD 5 1 - English 2 0] ESub"

Ride Along 2 2016 720p BluRay x264 Dual Audio [Hindi DD 5 1 - English 2 0] ESub

To download this torrent, you need a BitTorrent client: Vuze or BTGuard
Download this torrent
Download using Magnet Link





Health:
Seeds: 577
Leechers: 954
Completed: 662 
Last Checked: 12-02-2018 17:00:24

Uploader Reputation points : 1812
External: Torrent




Write a Review for the Uploader:   10   Say Thanks with one good review:


Details
Name:Ride Along 2 2016 720p BluRay x264 Dual Audio [Hindi DD 5 1 - English 2 0] ESub
Description:



General
Format                      : Matroska
Format version              : Version 4 / Version 2
File size                   : 842 MiB
Duration                    : 1 h 41 min
Overall bit rate            : 1 160 kb/s

Video
ID                          : 1
Format                      : AVC
Format/Info                 : Advanced Video Codec
Format profile              : [email protected]
Format settings             : CABAC / 4 Ref Frames
Format settings, CABAC      : Yes
Format settings, ReFrames   : 4 frames
Codec ID                    : V_MPEG4/ISO/AVC
Duration                    : 1 h 41 min
Bit rate                    : 900 kb/s
Width                       : 1 280 pixels
Height                      : 534 pixels
Display aspect ratio        : 2.40:1
Original display aspect rat : 2.40:1
Frame rate mode             : Constant
Frame rate                  : 23.976 FPS
Color space                 : YUV
Chroma subsampling          : 4:2:0
Bit depth                   : 8 bits
Scan type                   : Progressive
Bits/(Pixel*Frame)          : 0.055
Stream size                 : 653 MiB (78%)
Writing library             : x264 core 148
Default                     : Yes
Forced                      : No

Audio #1
ID                          : 3
Format                      : E-AC-3
Format/Info                 : Enhanced Audio Coding 3
Codec ID                    : A_EAC3
Duration                    : 1 h 41 min
Bit rate mode               : Constant
Bit rate                    : 192 kb/s
Channel(s)                  : 6 channels
Channel positions           : Front: L C R, Side: L R, LFE
Sampling rate               : 48.0 kHz
Frame rate                  : 187.500 FPS (256 SPF)
Compression mode            : Lossy
Stream size                 : 139 MiB (17%)
Language                    : Hindi
Service kind                : Complete Main
Default                     : Yes
Forced                      : Yes

Audio #2
ID                          : 4
Format                      : AAC
Format/Info                 : Advanced Audio Codec
Format profile              : LC
Codec ID                    : A_AAC-2
Duration                    : 1 h 41 min
Bit rate                    : 66.2 kb/s
Channel(s)                  : 2 channels
Channel positions           : Front: L R
Sampling rate               : 44.1 kHz
Frame rate                  : 43.066 FPS (1024 SPF)
Compression mode            : Lossy
Stream size                 : 47.1 MiB (6%)
Language                    : English
Default                     : No
Forced                      : No

Text
ID                          : 2
Format                      : UTF-8
Codec ID                    : S_TEXT/UTF8
Codec ID/Info               : UTF-8 Plain Text
Duration                    : 1 h 36 min
Bit rate                    : 96 b/s
Count of elements           : 2203
Stream size                 : 68.1 KiB (0%)
Default                     : Yes
Forced                      : No



















YouTube Video:
Category:Movies
Language:Hindi  Hindi
Total Size:841.85 MB
Info Hash:1ED53E0223872EDA7FA05DD93E61615CCE73B813
Added By:MovieFreak Verified UploaderMovie Pirate
Date Added:12-02-2018 10:39:27
Torrent Status:Torrent Verified


Ratings:Not Yet Rated (Log in to rate it)


Tracker:
udp://tracker.coppersurfer.tk:6969/announce

This Torrent also has backup trackers
URLSeedersLeechersCompleted
udp://tracker.coppersurfer.tk:6969/announce519376
udp://tracker.leechers-paradise.org:6969/announce518281
udp://inferno.demonoid.pw:3391/announce538236
udp://tracker.tntvillage.scambioetico.org:2710/announce000
udp://tracker.pirateparty.gr:6969/announce519376
udp://9.rarbg.com:2770/announce435349
udp://public.popcorn-tracker.org:6969/announce406834
udp://tracker.zer0day.to:1337/announce416737
http://bigfoot1942.sektori.org:6969/announce000
udp://ipv4.tracker.harry.lu:80/announce15280
udp://shadowshq.yi.org:6969/announce518281
udp://tracker.vanitycore.co:6969/announce436729
udp://tracker.opentrackr.org:1337/announce469045
udp://explodie.org:6969/announce000
udp://tracker.zer0day.to:1337/announce416737
udp://tracker.leechers-paradise.org:6969/announce518281
udp://coppersurfer.tk:6969/announce000


File List: 



Warning! Do not Download Torrents Without a VPN!
Your IP Address is .   Location is
Your Internet Provider and Government can track your torrent Activity! Hide your IP ADDRESS with a VPN!
We strongly recommend using SpyOFF VPN to anonymize your Torrenting.It's FREE!
START YOUR FREE TRIAL NOW!


Comments
No comments still posted