GloDLS.to - Download Movies, TV, Games and Other Torrents Free RSS 2.0enGloDLS.to - Download Movies, TV, Games and Other Torrents FreeGloDLS.to - Download Movies, TV, Games and Other Torrents Free RSS Feedhttp://glodls.toCopyright GloDLS.to - Download Movies, TV, Games and Other Torrents FreeSat, 17 Feb 2018 21:24:55 +0000 Mozart.in.the.Jungle.S04E04.1080p.WEB.H264-DEFLATE[N1C] http://glodls.to/torrent.php?id=3204664 http://glodls.to/torrent.php?id=3204664 Sat, 17 Feb 2018 21:20:12 +0000 TV

{Size} : 1.55 GiB
{Duration} : 29 min 27 s
{Resolution} : 1920 x 1080 pixels
{Display aspect ratio} : 16:9
{Frame Rate} : 23.976 fps
{Video Bitrate} : 6 757 kb/s
{Video Format Info} : Advanced Video Codec
{Video Format} : AVC
{Audio Format} : E-AC-3
{Audio Language} : English
{Audio Channels} : 6 CH


#N1C -> To avoid fakes, ALWAYS check that the torrent was added by NO1CARES


Help us by donating with Bitcoin: 1Pgwp16gmLHmPzgjJLxZnMw7YeqiUekUoe

Screens...


[URL=https://www.imgextra.uk/image/tMa][IMG]https://www.imgextra.uk/images/2018/02/17/tMa.th.jpg[/IMG][/URL]

[URL=https://www.imgextra.uk/image/tMh][IMG]https://www.imgextra.uk/images/2018/02/17/tMh.th.jpg[/IMG][/URL]

[URL=https://www.imgextra.uk/image/tMv][IMG]https://www.imgextra.uk/images/2018/02/17/tMv.th.jpg[/IMG][/URL]

[URL=https://www.imgextra.uk/image/tM1][IMG]https://www.imgextra.uk/images/2018/02/17/tM1.th.jpg[/IMG][/URL] ]]>
Our.Cartoon.President.S01E02.HDTV.x264-CROOKS[N1C] http://glodls.to/torrent.php?id=3204622 http://glodls.to/torrent.php?id=3204622 Sat, 17 Feb 2018 21:00:23 +0000 TV

{Size} : 101 MiB
{Duration} : 24 min 56 s
{Resolution} : 720 x 404 pixels
{Display aspect ratio} : 16:9
{Frame Rate} : 23.976 fps
{Video Bitrate} : 436 kb/s
{Video Format Info} : Advanced Video Codec
{Video Format} : AVC
{Audio Format} : AAC
{Audio Language} :
{Audio Channels} : 2 CH


#N1C -> To avoid fakes, ALWAYS check that the torrent was added by NO1CARES


Help us by donating with Bitcoin: 1Pgwp16gmLHmPzgjJLxZnMw7YeqiUekUoe

Screens...


[URL=https://www.imgextra.uk/image/tKi][IMG]https://www.imgextra.uk/images/2018/02/17/tKi.th.jpg[/IMG][/URL]

[URL=https://www.imgextra.uk/image/tKw][IMG]https://www.imgextra.uk/images/2018/02/17/tKw.th.jpg[/IMG][/URL]

[URL=https://www.imgextra.uk/image/tK6][IMG]https://www.imgextra.uk/images/2018/02/17/tK6.th.jpg[/IMG][/URL]

[URL=https://www.imgextra.uk/image/tM7][IMG]https://www.imgextra.uk/images/2018/02/17/tM7.th.jpg[/IMG][/URL] ]]>
Our Cartoon President S01E01 HDTV x264-CROOKS http://glodls.to/torrent.php?id=3204618 http://glodls.to/torrent.php?id=3204618 Sat, 17 Feb 2018 21:00:16 +0000 TV http://www.tvrage.com/schedule.php?show_yesterday=1. ]]> Building Giants S01E07 Worlds Tallest Church HDTV x264-CRiMSON http://glodls.to/torrent.php?id=3204614 http://glodls.to/torrent.php?id=3204614 Sat, 17 Feb 2018 21:00:12 +0000 TV http://www.tvrage.com/schedule.php?show_yesterday=1. ]]> Building Giants S01E07 Worlds Tallest Church 720p HDTV x264-CRiMSON http://glodls.to/torrent.php?id=3204613 http://glodls.to/torrent.php?id=3204613 Sat, 17 Feb 2018 21:00:09 +0000 TV http://www.tvrage.com/schedule.php?show_yesterday=1. ]]> The Housemaid 2016 HDRip AC3 X264-CMRG http://glodls.to/torrent.php?id=3204612 http://glodls.to/torrent.php?id=3204612 Sat, 17 Feb 2018 20:56:44 +0000 Movies COVER:
https://tinizo.com/upload/small/2018/02/17/5a88969d15282.jpg

ACTORS:
Kate Nhung, Jean-Michel Richaud, Kim Xuan, Svitlana Kovalenko, Kien An, Leon Bown,

RELEASED:
16 September 2016

IMDB: https://www.imdb.com/title/tt5860084/



Size: 10157765 bytes (9.69 MiB), duration: 00:00:32, avg.bitrate: 2539 kb/s
Audio: ac3, 48000 Hz, 5:1
Video: h264, yuv420p, 720x296, 24.00 fps(r)




Size: 1351672570 bytes (1.26 GiB), duration: 01:44:23, avg.bitrate: 1727 kb/s
Audio: ac3, 48000 Hz, 5:1 (eng)
Video: h264, yuv420p, 720x296, 24.00 fps(r) => 713x296





SCREENS:
[url=https://tinizo.com/img-5a88969d53845.html[/url]

[url]https://tinizo.com/img-5a88969d5735c.html[/url]

[url]https://tinizo.com/img-5a88969d59478.html[/url]


DOWNLOAD AND ENJOY.

KEEP IT FOR LONG SEEDING TO HELP OTHERS


Thanks to encoder
Movie Share ]]>
The.Housemaid.2016.HDRip.AC3.X264-CMRG http://glodls.to/torrent.php?id=3204611 http://glodls.to/torrent.php?id=3204611 Sat, 17 Feb 2018 20:51:43 +0000 Movies [color=red][b]
The.Housemaid.2016.HDRip.AC3.X264-CMRG

[/b][/color]


IMDb: http://www.imdb.com/title/tt5860084/





[url=https://boltimg.com/image/t52z][img]https://boltimg.com/images/t52z.png[/img][/url]



[color=green][b]
General

(Duration): 1h 44mn
(FileSize): 1.26 GiB



Audio

(Format): AC-3 - Audio Coding 3
(Codec): AC3



Video

(Format): AVC - Advanced Video Codec
(Media): video/H264
(Format): x264
(Resolution): 720x296 px
(AspectRatio): 2.40:1
(FrameRate): 24.000 fps




[/b][/color]


[url=https://boltimg.com/image/tzTE][img]https://boltimg.com/images/tzTE.png[/img][/url]



[color=purple][b](Click to enlarge)[/b][/color]

[url=https://boltimg.com/image/tYG1N][img]https://boltimg.com/images/tYG1N.th.jpg[/img][/url] [url=https://boltimg.com/image/tYvO7][img]https://boltimg.com/images/tYvO7.th.jpg[/img][/url] [url=https://boltimg.com/image/tYhHf][img]https://boltimg.com/images/tYhHf.th.jpg[/img][/url] [url=https://boltimg.com/image/tfLQO][img]https://boltimg.com/images/tfLQO.th.jpg[/img][/url] [url=https://boltimg.com/image/tfUXS][img]https://boltimg.com/images/tfUXS.th.jpg[/img][/url] [url=https://boltimg.com/image/tfrUE][img]https://boltimg.com/images/tfrUE.th.jpg[/img][/url]

[/center]
]]>
The Housemaid 2016 HDRip AC3 X264-CMRG.[N1C] http://glodls.to/torrent.php?id=3204610 http://glodls.to/torrent.php?id=3204610 Sat, 17 Feb 2018 20:48:43 +0000 Movies




{Size} : 1.26 GiB
{Duration} : 1 h 44 min
{Resolution} : 720 x 296 pixels
{Display aspect ratio} : 2.40:1
{Frame Rate} : 24.000 fps
{Video Bitrate} : 1 353 kb/s
{Video Format Info} : Advanced Video Codec
{Video Format} : AVC
{Audio Format} : AC-3
{Audio Language} : English
{Audio Channels} : 6 CH


#N1C -> To avoid fakes, ALWAYS check that the torrent was added by NO1CARES


Help us by donating with Bitcoin: 1Pgwp16gmLHmPzgjJLxZnMw7YeqiUekUoe


Screens...


[URL=https://www.imgextra.uk/image/tK4][IMG]https://www.imgextra.uk/images/2018/02/17/tK4.th.jpg[/IMG][/URL]

[URL=https://www.imgextra.uk/image/tKC][IMG]https://www.imgextra.uk/images/2018/02/17/tKC.th.jpg[/IMG][/URL]

[URL=https://www.imgextra.uk/image/tKP][IMG]https://www.imgextra.uk/images/2018/02/17/tKP.th.jpg[/IMG][/URL]

[URL=https://www.imgextra.uk/image/tKd][IMG]https://www.imgextra.uk/images/2018/02/17/tKd.th.jpg[/IMG][/URL] ]]>
Liza, a rókatündér AKA Liza the Fox-Fairy 2015 720p BluRay DD5 1 x264-IDE http://glodls.to/torrent.php?id=3204609 http://glodls.to/torrent.php?id=3204609 Sat, 17 Feb 2018 20:48:20 +0000 Movies
[url=http://www.imdb.com/title/tt2210769/]http://www.imdb.com/title/tt2210769/[/url]


Liza's a nurse, seeking love. Her only company is a long-dead Japanese pop star, who turns her into a fox-fairy out of jealousy. Now, every men who desires Liza shall die horribly. Can she overcome the curse?



Source                  : Liza, a rókatündér 2015 1080p Blu-ray AVC DTS-HD MA 5.1-HyperX (thanks kerhcy)
Length                  : 1h 37mn
Chapters                : Included
Video Bitrate           : 3779 Kbps
Format Profile Level    : High@L4.1
Resolution              : 1280 x 522 pixels
Framerate               : 24.000 fps
Audio                   : Hungarian AC3 5.1 @ 640 Kbps
Subtitles               : Eng (srt), Hun (sup)

Applied f3kdb to scenes with visible banding and blocking.


Encoding Log
x264 [info]: frame I:1246  Avg QP:13.95  size:117052
x264 [info]: frame P:25406 Avg QP:15.33  size: 45134
x264 [info]: frame B:114291 Avg QP:17.43  size: 13443
x264 [info]: consecutive B-frames:  1.2%  0.6%  2.8%  7.5%  5.8% 75.8%  2.8%  0.3%  2.6%  0.6% ]]>
Pitch Perfect 3 2017 720p HC HDRip X264 AC3 LLG http://glodls.to/torrent.php?id=3204608 http://glodls.to/torrent.php?id=3204608 Sat, 17 Feb 2018 20:47:43 +0000 Movies
[url=http://picserver4u.com/apple/0001.html][img]http://picserver4u.com/apple/000001.png[/img][/url]

******************************Screenshots:********************

[url=http://picserver4u.com/apple/0001.html]Screenshot 1 [/url]

[url=http://picserver4u.com/apple/0002.html]Screenshot 2 [/url]

[url=http://picserver4u.com/apple/0003.html]Screenshot 3 [/url]

[url=http://picserver4u.com/apple/0004.html]Screenshot 4 [/url]

[url=http://picserver4u.com/apple/0005.html]Screenshot 5 [/url]

[url=http://picserver4u.com/apple/0006.html]Screenshot 6 [/url]

[url=http://picserver4u.com/apple/0007.html]Screenshot 7 [/url]

[url=http://picserver4u.com/apple/0008.html]Screenshot 8 [/url]

[url=http://picserver4u.com/apple/0009.html]Screenshot 9 [/url]

[url=http://picserver4u.com/apple/0010.html]Screenshot 0 [/url]

**************************************************************

Complete name : Pitch.Perfect.3.2017.720p.HC.HDRip.X264.AC3.LLG.mp4
Format : MPEG-4
Format profile : Base Media
Codec ID : isom (isom/iso2/avc1/mp41)
File size : 868 MiB
Duration : 1 h 32 min
Overall bit rate : 1 317 kb/s
Writing application : Lavf57.56.101

Video
ID : 1
Format : AVC
Format/Info : Advanced Video Codec
Format profile : High@L3.1
Format settings : CABAC / 4 Ref Frames
Format settings, CABAC : Yes
Format settings, RefFrames : 4 frames
Codec ID : avc1
Codec ID/Info : Advanced Video Coding
Duration : 1 h 32 min
Bit rate : 1 200 kb/s
Width : 1 280 pixels
Height : 688 pixels
Display aspect ratio : 1.85:1
Frame rate mode : Constant
Frame rate : 25.000 FPS
Color space : YUV
Chroma subsampling : 4:2:0
Bit depth : 8 bits
Scan type : Progressive
Bits/(Pixel*Frame) : 0.055
Stream size : 781 MiB (90%)

Audio
ID : 2
Format : AC-3
Format/Info : Audio Coding 3
Codec ID : ac-3
Duration : 1 h 32 min
Bit rate mode : Constant
Bit rate : 128 kb/s
Channel(s) : 2 channels
Channel positions : Front: L R
Sampling rate : 48.0 kHz
Frame rate : 31.250 FPS (1536 SPF)
Bit depth : 16 bits
Compression mode : Lossy
Stream size : 84.4 MiB (10%)
Language : English
Service kind : Complete Main
Default : Yes
Alternate group : 1

]]>
All.I.See.Is.You.2016.720p.BluRay.x264-x0r http://glodls.to/torrent.php?id=3204607 http://glodls.to/torrent.php?id=3204607 Sat, 17 Feb 2018 20:39:09 +0000 Movies [color=red][b]
All.I.See.Is.You.2016.720p.BluRay.x264-x0r

[/b][/color]


IMDb: http://www.imdb.com/title/tt4486986/





[url=https://boltimg.com/image/t52z][img]https://boltimg.com/images/t52z.png[/img][/url]



[color=green][b]
General

(Duration): 1h 49mn
(FileSize): 2.31 GiB



Audio

(Format): AC-3 - Audio Coding 3
(Codec): AC3



Video

(Format): AVC - Advanced Video Codec
(Media): video/H264
(Format): x264
(Resolution): 1280x720 px
(AspectRatio): 16:9
(FrameRate): 23.976 fps



General

(Duration): 2mn 17s
(FileSize): 82.5 MiB



Audio

(Format): AAC - Advanced Audio Codec
(Codec): AAC LC



Video

(Format): AVC - Advanced Video Codec
(Media): video/H264
(Format):
(Resolution): 1280x544 px
(AspectRatio): 2.35:1
(FrameRate): 23.976 fps




[/b][/color]


[url=https://boltimg.com/image/tzTE][img]https://boltimg.com/images/tzTE.png[/img][/url]



[color=purple][b](Click to enlarge)[/b][/color]

[url=https://boltimg.com/image/tYOXL][img]https://boltimg.com/images/tYOXL.th.jpg[/img][/url] [url=https://boltimg.com/image/tYkLp][img]https://boltimg.com/images/tYkLp.th.jpg[/img][/url] [url=https://boltimg.com/image/tYqKC][img]https://boltimg.com/images/tYqKC.th.jpg[/img][/url] [url=https://boltimg.com/image/tYNVG][img]https://boltimg.com/images/tYNVG.th.jpg[/img][/url] [url=https://boltimg.com/image/tYT3F][img]https://boltimg.com/images/tYT3F.th.jpg[/img][/url] [url=https://boltimg.com/image/tY9ab][img]https://boltimg.com/images/tY9ab.th.jpg[/img][/url]

[/center]
]]>
Mozart.in.the.Jungle.S04E01.1080p.WEB.H264-DEFLATE[N1C] http://glodls.to/torrent.php?id=3204606 http://glodls.to/torrent.php?id=3204606 Sat, 17 Feb 2018 20:37:50 +0000 TV

{Size} : 1.22 GiB
{Duration} : 25 min 48 s
{Resolution} : 1920 x 1080 pixels
{Display aspect ratio} : 16:9
{Frame Rate} : 23.976 fps
{Video Bitrate} : 6 005 kb/s
{Video Format Info} : Advanced Video Codec
{Video Format} : AVC
{Audio Format} : E-AC-3
{Audio Language} : English
{Audio Channels} : 6 CH


#N1C -> To avoid fakes, ALWAYS check that the torrent was added by NO1CARES


Help us by donating with Bitcoin: 1Pgwp16gmLHmPzgjJLxZnMw7YeqiUekUoe

Screens...


[URL=https://www.imgextra.uk/image/tKW][IMG]https://www.imgextra.uk/images/2018/02/17/tKW.th.jpg[/IMG][/URL]

[URL=https://www.imgextra.uk/image/tKY][IMG]https://www.imgextra.uk/images/2018/02/17/tKY.th.jpg[/IMG][/URL]

[URL=https://www.imgextra.uk/image/tKc][IMG]https://www.imgextra.uk/images/2018/02/17/tKc.th.jpg[/IMG][/URL]

[URL=https://www.imgextra.uk/image/tKe][IMG]https://www.imgextra.uk/images/2018/02/17/tKe.th.jpg[/IMG][/URL] ]]>
All.I.See.Is.You.2016.720p.BluRay.x264-x0r[N1C] http://glodls.to/torrent.php?id=3204605 http://glodls.to/torrent.php?id=3204605 Sat, 17 Feb 2018 20:34:43 +0000 Movies




{Size} : 2.31 GiB
{Duration} : 1 h 49 min
{Resolution} : 1280 x 720 pixels
{Display aspect ratio} : 16:9
{Frame Rate} : 23.976 fps
{Video Bitrate} : 2 560 kb/s
{Video Format Info} : Advanced Video Codec
{Video Format} : AVC
{Audio Format} : AC-3
{Audio Language} : English
{Audio Channels} : 6 CH


#N1C -> To avoid fakes, ALWAYS check that the torrent was added by NO1CARES


Help us by donating with Bitcoin: 1Pgwp16gmLHmPzgjJLxZnMw7YeqiUekUoe


Screens...


[URL=https://www.imgextra.uk/image/tKk][IMG]https://www.imgextra.uk/images/2018/02/17/tKk.th.jpg[/IMG][/URL]

[URL=https://www.imgextra.uk/image/tKu][IMG]https://www.imgextra.uk/images/2018/02/17/tKu.th.jpg[/IMG][/URL]

[URL=https://www.imgextra.uk/image/tK5][IMG]https://www.imgextra.uk/images/2018/02/17/tK5.th.jpg[/IMG][/URL]

[URL=https://www.imgextra.uk/image/tKR][IMG]https://www.imgextra.uk/images/2018/02/17/tKR.th.jpg[/IMG][/URL] ]]>
Private Collection Of Hot Babes Pack 2 (jpeg) - roflcopter2110 [WWRG] http://glodls.to/torrent.php?id=3204604 http://glodls.to/torrent.php?id=3204604 Sat, 17 Feb 2018 20:25:15 +0000 Adult XXX
Private Collection Of Hot Babes Pack 2 (jpeg) - roflcopter2110 [WWRG]

1,191 Pics
Size: 70 MB

Preview:
[url=https://worldimages.gallery/images/2018/02/17/l42Oc.jpg]https://worldimages.gallery/images/2018/02/17/l42Oc.jpg[/url]
[url=https://worldimages.gallery/images/2018/02/17/l4KFA.jpg]https://worldimages.gallery/images/2018/02/17/l4KFA.jpg[/url]
[url=https://worldimages.gallery/images/2018/02/17/l4gMD.jpg]https://worldimages.gallery/images/2018/02/17/l4gMD.jpg[/url]
[url=https://worldimages.gallery/images/2018/02/17/l4rRY.jpg]https://worldimages.gallery/images/2018/02/17/l4rRY.jpg[/url]
[url=https://worldimages.gallery/images/2018/02/17/l4DrQ.jpg]https://worldimages.gallery/images/2018/02/17/l4DrQ.jpg[/url]

[center][img]https://worldimages.gallery/images/2017/07/03/img.gif[/img][/center] ]]>
Our.Cartoon.President.S01E02.720p.HDTV.x264-CROOKS[N1C] http://glodls.to/torrent.php?id=3204603 http://glodls.to/torrent.php?id=3204603 Sat, 17 Feb 2018 20:16:49 +0000 TV

{Size} : 306 MiB
{Duration} : 24 min 56 s
{Resolution} : 1280 x 718 pixels
{Display aspect ratio} : 16:9
{Frame Rate} : 23.976 fps
{Video Bitrate} : 1 331 kb/s
{Video Format Info} : Advanced Video Codec
{Video Format} : AVC
{Audio Format} : AC-3
{Audio Language} :
{Audio Channels} : 2 CH


#N1C -> To avoid fakes, ALWAYS check that the torrent was added by NO1CARES


Help us by donating with Bitcoin: 1Pgwp16gmLHmPzgjJLxZnMw7YeqiUekUoe

Screens...


[URL=https://www.imgextra.uk/image/tKQ][IMG]https://www.imgextra.uk/images/2018/02/17/tKQ.th.jpg[/IMG][/URL]

[URL=https://www.imgextra.uk/image/tKq][IMG]https://www.imgextra.uk/images/2018/02/17/tKq.th.jpg[/IMG][/URL]

[URL=https://www.imgextra.uk/image/tKE][IMG]https://www.imgextra.uk/images/2018/02/17/tKE.th.jpg[/IMG][/URL]

[URL=https://www.imgextra.uk/image/tKj][IMG]https://www.imgextra.uk/images/2018/02/17/tKj.th.jpg[/IMG][/URL] ]]>
Beautiful Curves[UK Sinners]Split Scenes http://glodls.to/torrent.php?id=3204602 http://glodls.to/torrent.php?id=3204602 Sat, 17 Feb 2018 20:05:38 +0000 Adult XXX [center][URL=http://imageteam.org/img-5a88874a64466.html][IMG]http://imageteam.org/upload/small/2018/02/17/5a88874a6442d.jpg[/IMG][/URL]
[size=4]


Starring: Victoria Summers, Brooklyn Blue, Lara Jade Deene, Megan Clara, Alana Long
Categories: 1080p, Cream Pie, Cumshot, Cunnilingus, Gonzo, HD, One-on-One, Oral, Straight Sex, Tit Fucking
File size: 1,62 GB


[b]SCREENS:[/b]

[url]http://imageteam.org/img-5a8887588913a.html[/url]
[url]http://damimage.com/img-5a888773e26ba.html[/url]
[url]http://imagedecode.com/img-5a888793cb2dc.html[/url]
[url]https://img.yt/img-5a8887be327fd.html[/url]

[/size]
[/center] ]]>
Our.Cartoon.President.S01E01.HDTV.x264-CROOKS[N1C] http://glodls.to/torrent.php?id=3204562 http://glodls.to/torrent.php?id=3204562 Sat, 17 Feb 2018 20:01:58 +0000 TV

{Size} : 119 MiB
{Duration} : 26 min 29 s
{Resolution} : 720 x 404 pixels
{Display aspect ratio} : 16:9
{Frame Rate} : 23.976 fps
{Video Bitrate} : 497 kb/s
{Video Format Info} : Advanced Video Codec
{Video Format} : AVC
{Audio Format} : AAC
{Audio Language} :
{Audio Channels} : 2 CH


#N1C -> To avoid fakes, ALWAYS check that the torrent was added by NO1CARES


Help us by donating with Bitcoin: 1Pgwp16gmLHmPzgjJLxZnMw7YeqiUekUoe

Screens...


[URL=https://www.imgextra.uk/image/tKN][IMG]https://www.imgextra.uk/images/2018/02/17/tKN.th.jpg[/IMG][/URL]

[URL=https://www.imgextra.uk/image/tKZ][IMG]https://www.imgextra.uk/images/2018/02/17/tKZ.th.jpg[/IMG][/URL]

[URL=https://www.imgextra.uk/image/tKl][IMG]https://www.imgextra.uk/images/2018/02/17/tKl.th.jpg[/IMG][/URL]

[URL=https://www.imgextra.uk/image/tKo][IMG]https://www.imgextra.uk/images/2018/02/17/tKo.th.jpg[/IMG][/URL] ]]>
Our.Cartoon.President.S01E01.720p.HDTV.x264-CROOKS[N1C] http://glodls.to/torrent.php?id=3204558 http://glodls.to/torrent.php?id=3204558 Sat, 17 Feb 2018 20:01:48 +0000 TV

{Size} : 350 MiB
{Duration} : 26 min 29 s
{Resolution} : 1280 x 718 pixels
{Display aspect ratio} : 16:9
{Frame Rate} : 23.976 fps
{Video Bitrate} : 1 463 kb/s
{Video Format Info} : Advanced Video Codec
{Video Format} : AVC
{Audio Format} : AC-3
{Audio Language} :
{Audio Channels} : 2 CH


#N1C -> To avoid fakes, ALWAYS check that the torrent was added by NO1CARES


Help us by donating with Bitcoin: 1Pgwp16gmLHmPzgjJLxZnMw7YeqiUekUoe

Screens...


[URL=https://www.imgextra.uk/image/tKL][IMG]https://www.imgextra.uk/images/2018/02/17/tKL.th.jpg[/IMG][/URL]

[URL=https://www.imgextra.uk/image/tKV][IMG]https://www.imgextra.uk/images/2018/02/17/tKV.th.jpg[/IMG][/URL]

[URL=https://www.imgextra.uk/image/tKH][IMG]https://www.imgextra.uk/images/2018/02/17/tKH.th.jpg[/IMG][/URL]

[URL=https://www.imgextra.uk/image/tKJ][IMG]https://www.imgextra.uk/images/2018/02/17/tKJ.th.jpg[/IMG][/URL] ]]>
Our Cartoon President S01E01 720p HDTV x264-CROOKS http://glodls.to/torrent.php?id=3204554 http://glodls.to/torrent.php?id=3204554 Sat, 17 Feb 2018 20:01:31 +0000 TV http://www.tvrage.com/schedule.php?show_yesterday=1. ]]> Our Cartoon President S01E02 720p HDTV x264-CROOKS http://glodls.to/torrent.php?id=3204553 http://glodls.to/torrent.php?id=3204553 Sat, 17 Feb 2018 20:01:27 +0000 TV http://www.tvrage.com/schedule.php?show_yesterday=1. ]]> Our Cartoon President S01E02 HDTV x264-CROOKS http://glodls.to/torrent.php?id=3204552 http://glodls.to/torrent.php?id=3204552 Sat, 17 Feb 2018 20:01:23 +0000 TV http://www.tvrage.com/schedule.php?show_yesterday=1. ]]> BBC Our World 2018 We Lived Through a War Compton LA 720p HDTV x264 AAC mkv http://glodls.to/torrent.php?id=3204551 http://glodls.to/torrent.php?id=3204551 Sat, 17 Feb 2018 20:01:18 +0000 TV http://www.tvrage.com/schedule.php?show_yesterday=1. ]]> The Roman Empire Rules Today - roflcopter2110 http://glodls.to/torrent.php?id=3204550 http://glodls.to/torrent.php?id=3204550 Sat, 17 Feb 2018 19:47:27 +0000 Movies
The Roman Empire Rules Today MP4 - roflcopter2110.mp4 - 4h 34min 426 x 240

Not the best quality but the information on this video is outstanding!

Research based opinion on the New World Order.

Birth of Holy Roman Empire and its destruction in the last day at the hands of the Kingdom of God.

MPEG-4 (Base Media / Version 2): 594MB, 4h 34min
1 video stream: AVC
1 audio stream: AAC
Overall bit rate mode: Variable
Overall bit rate: 302 kb/s

Video:
204 kb/s, 426*240 (16:9), at 29.970 FPS, AVC

Audio:
English, 96.0 kb/s, 44.1 kHz, 2 channels, AAC

Screens:
[img]https://extraimage.net/images/2018/02/17/1a941f1bf52ee64900fd35e0f8543fd8.png[/img]
[img]https://extraimage.net/images/2018/02/17/2b40e58f99f80e8a68104f207794fc3f.png[/img]
[img]https://extraimage.net/images/2018/02/17/68cfe04036c79dcd8a5eeaf223fc6fe7.png[/img]
[img]https://extraimage.net/images/2018/02/17/e8f8683524a324a9eb4aa9a98c9602e3.png[/img] ]]>
Seductive Vixens[UK Sinners]Split Scenes http://glodls.to/torrent.php?id=3204549 http://glodls.to/torrent.php?id=3204549 Sat, 17 Feb 2018 19:42:04 +0000 Adult XXX [center][URL=http://imageteam.org/img-5a8881332dd23.html][IMG]http://imageteam.org/upload/small/2018/02/17/5a8881332dce4.jpg[/IMG][/URL]
[size=4]


Starring: Julia De Lucia, Stella Cox, Ruby Temptations, Lois Loveheart, Lynna Nilsson
Categories: 1080p, Cunnilingus, Gonzo, HD, One-on-One, Oral, Straight Sex
File size: 2,05 GB


[b]SCREENS:[/b]

[url]http://imageteam.org/img-5a8881f9c278d.html[/url]
[url]http://damimage.com/img-5a888213889e6.html[/url]
[url]https://www.iceimg.net/site/v/4517403#2405&4517403[/url]
[url]http://imagedecode.com/img-5a88828a5b4e1.html[/url]
[url]https://img.yt/img-5a8882b11725a.html[/url]

[/size]
[/center]
]]>
Thor Ragnarok 2017 1080p BRRip X264 AC3-EVO http://glodls.to/torrent.php?id=3204548 http://glodls.to/torrent.php?id=3204548 Sat, 17 Feb 2018 19:37:48 +0000 Movies COVER:
https://tinizo.com/upload/small/2018/02/17/5a8884649e04b.jpg

ACTORS:
3501632-imdblink-Chris Hemsworth, Tom Hiddleston, Cate Blanchett, Idris Elba, Jeff Goldblum, Tessa Thompson, Karl Urban, Mark Ruffalo, Anthony Hopkins,

RELEASED:
3 November 2017



Size: 4360926752 bytes (4.06 GiB), duration: 02:10:30, avg.bitrate: 4456 kb/s
Audio: ac3, 48000 Hz, 5:1 (eng)
Video: h264, yuv420p, 1920x800, 23.98 fps(r) (eng)


SCREENS:
[url=https://tinizo.com/img-5a8884654581d.html[/url]

[url]https://tinizo.com/img-5a8884655297d.html[/url]

[url]https://tinizo.com/img-5a8884655e8f7.html[/url]


DOWNLOAD AND ENJOY.

KEEP IT FOR LONG SEEDING TO HELP OTHERS


Thanks to : EVO
Movie Share ]]>
Mick Karn 1993 Bestial Cluster http://glodls.to/torrent.php?id=3204547 http://glodls.to/torrent.php?id=3204547 Sat, 17 Feb 2018 19:25:53 +0000 FLAC
Mick Karn ?– Bestial Cluster
Label: CMP Records ?– CMP CD 1002
Format: CD, Album
Country: Germany
Released: 1993
Genre: Electronic, Rock
Style: Abstract, Art Rock, Ambient
Tags: Steve Jansen, Richard Barbieri

[b]1. Bestial Cluster[/b]
Keyboards, Soloist – Joachim Kühn
Performer [Audience] – Barbieri*
Performer [Whey-hey] – Torn*
4:11
[b]2. Back In The Beginning[/b]
Backing Vocals – Mario Argandoña, Sabine Van Baaren
Frame Drum – Glen Velez
Percussion [Wild] – Ed Mann
Piano [Acoustic] – Joachim Kühn
5:10
[b]3. Beard In The Letterbox[/b]
Sampler [Samples] – Richie Stevens
Soprano Saxophone – David Liebman
7:06
[b]4. The Drowning Dream[/b]
Vocals [The "aquarius"] – Torn*, Karn*, Jansen*
5:07
[b]5. The Sad Velvet Breath Of Summer And Winter[/b]
Bansuri [Bass], Suling – Steve Gorn
Pandeiro [Pandero], Bendir – Glen Velez
Piano [Acoustic] – Joachim Kühn
5:47
[b]6. Saday, Maday[/b]
Bassoon – Jürgen Kernbach
Soprano Saxophone – David Liebman
Vocals [Chilean] – Mario Argandoña
6:28
[b]7. Liver & Lungs[/b]
Soprano Saxophone – David Liebman
Violin – Walter Quintus
5:40
[b]8. Bones Of Mud[/b]
Bansuri, Flute [Chotuala] – Steve Gorn
Bodhrán, Percussion [Riq Frame] – Glen Velez
5:36

Recorded At – Ztudio Zerkall
Phonographic Copyright (p) – CMP Records
Copyright (c) – CMP Records
Made By – Sonopress – G-9327
Distributed By – EFA – EFA CD 03302 / 26

Arranged By – Torn* (tracks: 1, 3, 4, 6 to 8), Karn*, Quintus* (tracks: 8)
Design, Art Direction – Stylorouge
Drums [Acoustic], Goblet Drum [Dumbek], Congas – Steve Jansen
Electric Guitar, Acoustic Guitar, Slide Guitar, Mandolin, Banjo, Harmonica, Keyboards, Programmed By [Rhythm], Voice [Occasional], Percussion [Occasional] – David Torn
Executive-Producer – Kurt Renker
Keyboards [Unique Bits], Programmed By [Sounds] – Richard Barbieri
Photography By – Kevin Westenberg
Producer – David Torn, Mick Karn
Producer [Help] – Kurt Renker, Walter Quintus
Recorded By – Walter Quintus
Recorded By [Additional Recordings] – Torn*, Matthias Kratzenstein
Vocals, Lyrics By, Bass Guitar [Fretless], Bass Clarinet, Clarinet, Alto Saxophone, Keyboards, Programmed By [Rhythm], Percussion [Occasional] – Mick Karn
Written By – Karn/Torn (tracks: 3, 4, 6)
Written-By – Torn* (tracks: 3, 4, 6), Karn* (tracks: 3, 4, 6)

Recorded digitally in 1992 at Ztudio Zerkall

[i]Mick Karn, real name: Andonis Michaelides

24 July 1958 - 4 January 2011

Mick Karn was a one-off and an all-round artist. He emigrated to the UK from Cyprus in the early 1960s and met the three other founding members of Japan at Catford Boys' School in London. Japan became one of the most celebrated bands of the 1980s, and their popularity is only increasing today, with huge interest in the original, subsequent and solo music of the various members and a new book, "Japan: A Foreign Place", by Anthony Reynolds (due in 2015). Japan split in 1982, bowing out after a hugely successful world tour and accompanying album, "Oil On Canvas".

Inside and outside Japan, Mick developed a distinctive and original bass sound instantly recognizable as his own. Mick was mainly a self-taught musician and many feel he changed the perception of how the bass is played and heard forever. His rubbery, unique playing led best friend and Polytown band mate David Torn to say of Mick, "It's as if Bootsy Collins was from Morocco." He also played woodwind instruments, mainly clarinet and saxophone, and many others.

Mick was a celebrated sculptor as well as an author and chef; he later qualified in psychiatry. He spoke several languages and in 2009 published his autobiography, "Japan and Self Existence," available from www.lulu.com.

After Japan, Mick worked in many areas of music, experimenting in jazz, ambient and prog, and continued to create his own indefinable music as a solo artist and in collaboration with other great musicians, including ex-members of Japan.

His first solo album, "Titles", and the first Dalis Car collaboration, "The Waking Hour", give those new to his music a good place to begin to discover it.

Other groups/collaborations:
Alice, Polytown.[/i] ]]>
The Scent of Rain & Lightning 2017 720p WEB-DL AAC LLG http://glodls.to/torrent.php?id=3204546 http://glodls.to/torrent.php?id=3204546 Sat, 17 Feb 2018 19:25:50 +0000 Movies
[url=http://picserver4u.com/m/0481.html][img]http://picserver4u.com/m/000481.png[/img][/url]

******************************Screenshots:********************

[url=http://picserver4u.com/m/0481.html]Screenshot 1 [/url]

[url=http://picserver4u.com/m/0482.html]Screenshot 2 [/url]

[url=http://picserver4u.com/m/0483.html]Screenshot 3 [/url]

[url=http://picserver4u.com/m/0484.html]Screenshot 4 [/url]

[url=http://picserver4u.com/m/0485.html]Screenshot 5 [/url]

[url=http://picserver4u.com/m/0486.html]Screenshot 6 [/url]

[url=http://picserver4u.com/m/0487.html]Screenshot 7 [/url]

[url=http://picserver4u.com/m/0488.html]Screenshot 8 [/url]

[url=http://picserver4u.com/m/0489.html]Screenshot 9 [/url]

[url=http://picserver4u.com/m/0490.html]Screenshot 0 [/url]

Complete name : The Scent.of.Rain.&.Lightning.2017.720p.WEB-DL.AAC.LLG.mp4
Format : MPEG-4
Format profile : Base Media
Codec ID : isom (isom/iso2/avc1/mp41)
File size : 720 MiB
Duration : 1 h 42 min
Overall bit rate : 978 kb/s
Writing application : Lavf57.56.101

Video
ID : 1
Format : AVC
Format/Info : Advanced Video Codec
Format profile : High@L3.1
Format settings : CABAC / 4 Ref Frames
Format settings, CABAC : Yes
Format settings, RefFrames : 4 frames
Codec ID : avc1
Codec ID/Info : Advanced Video Coding
Duration : 1 h 42 min
Bit rate : 900 kb/s
Width : 1 280 pixels
Height : 720 pixels
Display aspect ratio : 16:9
Frame rate mode : Constant
Frame rate : 23.976 (23976/1000) FPS
Color space : YUV
Chroma subsampling : 4:2:0
Bit depth : 8 bits
Scan type : Progressive
Bits/(Pixel*Frame) : 0.041
Stream size : 668 MiB (93%)

Audio
ID : 2
Format : AAC
Format/Info : Advanced Audio Codec
Format profile : LC
Codec ID : mp4a-40-2
Duration : 1 h 42 min
Bit rate mode : Constant
Bit rate : 64.5 kb/s
Channel(s) : 2 channels
Channel positions : Front: L R
Sampling rate : 48.0 kHz
Frame rate : 46.875 FPS (1024 SPF)
Compression mode : Lossy
Stream size : 47.5 MiB (7%)
Language : English
]]>
[Indecentes-Voisines]Angelique - Angelique, jeune bibliothecaire parisienne, offerte pour la premiere fois a un black! http://glodls.to/torrent.php?id=3204545 http://glodls.to/torrent.php?id=3204545 Sat, 17 Feb 2018 19:21:10 +0000 Adult XXX [center][URL=http://damimage.com/img-5a887a885061d.html][IMG]http://damimage.com/upload/small/2018/02/17/5a887a88505e2.jpeg[/IMG][/URL]
[size=4]

Angelique - Angelique, jeune bibliothecaire parisienne, offerte pour la premiere fois a un black!
Category: Anal, Threesome, BJ, Amateurs, Hardcore, All Sex
File size: 463 MB
Duration: 00:50:41

[b]SCREENS:[/b]

[url]http://damimage.com/img-5a887a98cc34b.html[/url]
[url]https://www.iceimg.net/site/v/4517281#2405&4517281[/url]


[b]SHOOT:[/b]
[url]http://imageteam.org/img-5a887be17de31.html[/url]
[/size]
[/center] ]]>
Erotic Politics - The Dynamics of Desire in the Renaissance Theatre http://glodls.to/torrent.php?id=3204544 http://glodls.to/torrent.php?id=3204544 Sat, 17 Feb 2018 19:10:40 +0000 Books
[b]English | 162 pages | PDF | 1.76 MB[/b]

[b][url=http://4kw.in/14210.html]PREVIEW 1[/url][/b]

[b][url=http://4kw.in/14211.html]PREVIEW 2[/url][/b][/size] ]]>
Erotic City - Sexual Revolutions and the Making of Modern San Francisco http://glodls.to/torrent.php?id=3204543 http://glodls.to/torrent.php?id=3204543 Sat, 17 Feb 2018 19:09:44 +0000 Books
[b]English | 303 pages | PDF | 4.28 MB[/b]

[b][url=http://4kw.in/14208.html]PREVIEW 1[/url][/b]

[b][url=http://4kw.in/14209.html]PREVIEW 2[/url][/b][/size] ]]>
MilfsLikeItBig - Cherie Deville (Fucking Millennials) http://glodls.to/torrent.php?id=3204541 http://glodls.to/torrent.php?id=3204541 Sat, 17 Feb 2018 19:06:01 +0000 Adult XXX http://imgskull.com/image/2A49a

http://imgskull.xyz/image/UDBZX

[/center] ]]>
BrazzersExxtra - Cristal Caraballo (Teasing Toes) http://glodls.to/torrent.php?id=3204540 http://glodls.to/torrent.php?id=3204540 Sat, 17 Feb 2018 19:05:49 +0000 Adult XXX http://imgskull.xyz/image/UD5JV

http://imgskull.com/image/2A3m7

[/center] ]]>
Erotic Morality - The Role of Touch in Moral Agency By Linda Holler http://glodls.to/torrent.php?id=3204539 http://glodls.to/torrent.php?id=3204539 Sat, 17 Feb 2018 19:05:36 +0000 Books
[b]English | 254 pages | PDF | 1.86 MB[/b]

[b][url=http://4kw.in/14206.html]PREVIEW 1[/url][/b]

[b][url=http://4kw.in/14207.html]PREVIEW 2[/url][/b][/size] ]]>
ShareMyBF - Charity Crawford, Evelin Stone (Prank Whores Sexy Robbery) http://glodls.to/torrent.php?id=3204538 http://glodls.to/torrent.php?id=3204538 Sat, 17 Feb 2018 19:05:07 +0000 Adult XXX http://imgskull.com/image/2Au8s

http://imgskull.xyz/image/UDrrC


[/center]
]]>
ExxxtraSmall - Tory Bellamy (Friend Zoned By Petite Pussy) http://glodls.to/torrent.php?id=3204537 http://glodls.to/torrent.php?id=3204537 Sat, 17 Feb 2018 19:04:51 +0000 Adult XXX http://imgskull.xyz/image/UDmt1

http://imgskull.com/image/2ASfy

[/center] ]]>
DarkX - Chloe Cherry (Anal Sex is the Best Part 1) http://glodls.to/torrent.php?id=3204536 http://glodls.to/torrent.php?id=3204536 Sat, 17 Feb 2018 19:04:44 +0000 Adult XXX http://imgskull.com/image/2AGGt

http://imgskull.xyz/image/UDGzS

[/center] ]]>
DogHouseDigital - Angel Wicky, Eveline Darling (I have Your Boyfriend Now) http://glodls.to/torrent.php?id=3204535 http://glodls.to/torrent.php?id=3204535 Sat, 17 Feb 2018 19:04:37 +0000 Adult XXX http://imgskull.xyz/image/UDC4r

http://imgskull.com/image/2AZPd

[/center] ]]>
DevilsFilm - Dee Williams http://glodls.to/torrent.php?id=3204534 http://glodls.to/torrent.php?id=3204534 Sat, 17 Feb 2018 19:04:22 +0000 Adult XXX http://imgskull.com/image/2Aezm

http://imgskull.xyz/image/UDAdT

[/center] ]]>
BurningAngel - Savana Styles (French Anal MILF Maids) http://glodls.to/torrent.php?id=3204533 http://glodls.to/torrent.php?id=3204533 Sat, 17 Feb 2018 19:04:17 +0000 Adult XXX http://imgskull.xyz/image/UD9hu

http://imgskull.com/image/2AUHJ

[/center] ]]>
And Never Know the Joy - Sex and the Erotic in English Poetry http://glodls.to/torrent.php?id=3204532 http://glodls.to/torrent.php?id=3204532 Sat, 17 Feb 2018 19:04:15 +0000 Books
[b]English | 503 pages | PDF | 1.76 MB[/b]

[b][url=http://4kw.in/14204.html]PREVIEW 1[/url][/b]

[b][url=http://4kw.in/14205.html]PREVIEW 2[/url][/b][/size] ]]>
EuroSexParties - Carolina Abril, Natty Mellow (Double Trouble) http://glodls.to/torrent.php?id=3204531 http://glodls.to/torrent.php?id=3204531 Sat, 17 Feb 2018 19:04:12 +0000 Adult XXX http://imgskull.com/image/2Apr8

http://imgskull.xyz/image/UDgEF

[/center] ]]>
8thStreetLatinas - Ashlynn Taylor (Learning The Hard Way) http://glodls.to/torrent.php?id=3204530 http://glodls.to/torrent.php?id=3204530 Sat, 17 Feb 2018 19:04:06 +0000 Adult XXX http://imgskull.xyz/image/UDH9D

http://imgskull.com/image/2AmKI

[/center] ]]>
HotLegsAndFeet - Cassie Del Isla (Private Pole Dance Affairs) http://glodls.to/torrent.php?id=3204529 http://glodls.to/torrent.php?id=3204529 Sat, 17 Feb 2018 19:03:57 +0000 Adult XXX http://imgskull.com/image/2AWto

http://imgskull.xyz/image/UDxZM

[/center] ]]>
Drilled XXX DVDRiP x264 http://glodls.to/torrent.php?id=3204528 http://glodls.to/torrent.php?id=3204528 Sat, 17 Feb 2018 19:03:35 +0000 Adult XXX http://imgskull.xyz/image/UDP1a

http://imgskull.com/image/2ATmc

[/center] ]]>
SeducedByACougar - Reagan Foxx (23757) http://glodls.to/torrent.php?id=3204527 http://glodls.to/torrent.php?id=3204527 Sat, 17 Feb 2018 19:03:25 +0000 Adult XXX http://imgskull.com/image/2AyOh

http://imgskull.xyz/image/UDdrN

[/center] ]]>
MassageRooms - Angie Moon (Dark haired babe on massage table) http://glodls.to/torrent.php?id=3204526 http://glodls.to/torrent.php?id=3204526 Sat, 17 Feb 2018 19:03:20 +0000 Adult XXX http://imgskull.xyz/image/UDMtx

http://imgskull.com/image/2ArbB

[/center] ]]>
Master - An Erotic Novel of the Count of Monte Cristo http://glodls.to/torrent.php?id=3204525 http://glodls.to/torrent.php?id=3204525 Sat, 17 Feb 2018 19:03:16 +0000 Books
[b]English | 176 pages | PDF | 878 KB[/b]

[b][url=http://4kw.in/14202.html]PREVIEW 1[/url][/b]

[b][url=http://4kw.in/14203.html]PREVIEW 2[/url][/b][/size] ]]>
FakeTaxi - Verona Sky (Backseat undressing erection issues) http://glodls.to/torrent.php?id=3204524 http://glodls.to/torrent.php?id=3204524 Sat, 17 Feb 2018 19:03:13 +0000 Adult XXX http://imgskull.com/image/2AgGn

http://imgskull.xyz/image/UD2yE

[/center] ]]>
PureTaboo - Aubrey Sinclair (Drivers Education) http://glodls.to/torrent.php?id=3204523 http://glodls.to/torrent.php?id=3204523 Sat, 17 Feb 2018 19:03:01 +0000 Adult XXX http://imgskull.xyz/image/UDv4k

http://imgskull.com/image/2AaxH

[/center] ]]>
GFRevenge - Dani Desire (Full Of Desire) http://glodls.to/torrent.php?id=3204522 http://glodls.to/torrent.php?id=3204522 Sat, 17 Feb 2018 19:02:48 +0000 Adult XXX http://imgskull.com/image/2Anz6

http://imgskull.xyz/image/UDud9

[/center] ]]>